Per skaitmeninę antžeminę televiziją (DVB-T) jau prasidėjo bandomosios LRT HD transliacijos

2016-05-18 18_42_51-ALT-DVB @ BDA2 [WinFast DTV Dongle Gold BDA Filter] - Terrestrial

LRT HD pradėjo transliacijas 2014 metų sausį. Pradžioje tik kelios LRT gamybos laidos buvo HD kokybės, o dabar tikriausiai jau visa vidinė LRT produkcija yra HD. LRT HD transliacija buvo prieinama tik kabelinių televizijų klientams, tačiau dabar situacija keičiasi.

Pastabūs žiūrovai pastebėjo, jog bent Kaune ir Marijampolėje prasidėjo LRT HD transliacijos per skaitmeninę antžeminę televiziją – DVB-T.  Ir kaip buvo žadėta dar 2011 metais LRT bando savo siųstuvų tinklą. 474 MHz dažniu (21 kanalu) transliuojami trys kanalai: LRT HD, LRT, LRT Kultūra. Oficialiai paleidus šį tinklą, dvi LRT programos turėtų pradingti iš LRTC1 tinklo, tad lauks dar vienas kanalų perskenavimas.

LRT HD 1080i vaizdas perduodamas naudojant vidutinį ~8000 Kbps srautą. Palyginimui Youtube 1080p įrašams naudoja 2000 Kbps.

General
ID                             : 7 (0x7)
Complete name                  :\20160518_2219 LRT Televizija HD.TS
Format                         : MPEG-TS
File size                      : 69.9 MiB
Duration                       : 1mn 1s
Overall bit rate mode          : Variable
Overall bit rate               : 9 579 Kbps

Video
ID                             : 412 (0x19C)
Menu ID                        : 410 (0x19A)
Format                         : AVC
Format/Info                    : Advanced Video Codec
Format profile                 : High@L4.0
Format settings, CABAC         : Yes
Format settings, ReFrames      : 4 frames
Codec ID                       : 27
Duration                       : 1mn 0s
Bit rate                       : 7 813 Kbps
Width                          : 1 920 pixels
Height                         : 1 080 pixels
Display aspect ratio           : 16:9
Frame rate                     : 25.000 fps
Standard                       : Component
Color space                    : YUV
Chroma subsampling             : 4:2:0
Bit depth                      : 8 bits
Scan type                      : MBAFF
Bits/(Pixel*Frame)             : 0.151
Stream size                    : 56.4 MiB (81%)
Color primaries                : BT.709
Transfer characteristics       : BT.709
Matrix coefficients            : BT.709

Audio #1
ID                             : 413 (0x19D)
Menu ID                        : 410 (0x19A)
Format                         : MPEG Audio
Format version                 : Version 1
Format profile                 : Layer 2
Codec ID                       : 3
Duration                       : 1mn 1s
Bit rate mode                  : Constant
Bit rate                       : 192 Kbps
Channel(s)                     : 2 channels
Sampling rate                  : 48.0 KHz
Compression mode               : Lossy
Delay relative to video        : -1s 80ms
Stream size                    : 1.40 MiB (2%)
Language                       : Lithuanian

Audio #2
ID                             : 414 (0x19E)
Menu ID                        : 410 (0x19A)
Format                         : MPEG Audio
Format version                 : Version 1
Format profile                 : Layer 2
Codec ID                       : 3
Duration                       : 1mn 1s
Bit rate mode                  : Constant
Bit rate                       : 192 Kbps
Channel(s)                     : 2 channels
Sampling rate                  : 48.0 KHz
Compression mode               : Lossy
Delay relative to video        : -1s 80ms
Stream size                    : 1.40 MiB (2%)
Language                       : qaa

Audio #3
ID                             : 415 (0x19F)
Menu ID                        : 410 (0x19A)
Format                         : AC-3
Format/Info                    : Audio Coding 3
Mode extension                 : CM (complete main)
Format settings, Endianness    : Big
Codec ID                       : 6
Duration                       : 1mn 1s
Bit rate mode                  : Constant
Bit rate                       : 384 Kbps
Channel(s)                     : 6 channels
Channel positions              : Front: L C R, Side: L R, LFE
Sampling rate                  : 48.0 KHz
Bit depth                      : 16 bits
Compression mode               : Lossy
Delay relative to video        : -1s 90ms
Stream size                    : 2.80 MiB (4%)
Language                       : Lithuanian

Audio #4
ID                             : 416 (0x1A0)
Menu ID                        : 410 (0x19A)
Format                         : AC-3
Format/Info                    : Audio Coding 3
Mode extension                 : CM (complete main)
Format settings, Endianness    : Big
Codec ID                       : 6
Duration                       : 1mn 1s
Bit rate mode                  : Constant
Bit rate                       : 512 Kbps
Channel(s)                     : 6 channels
Channel positions              : Front: L C R, Side: L R, LFE
Sampling rate                  : 48.0 KHz
Bit depth                      : 16 bits
Compression mode               : Lossy
Delay relative to video        : -1s 90ms
Stream size                    : 3.73 MiB (5%)
Language                       : Lithuanian

Menu
ID                             : 411 (0x19B)
Menu ID                        : 410 (0x19A)
Duration                       : 1mn 1s
List                           : 415 (0x19F) (AC-3, Lithuanian) / 416 (0x1A0) (AC-3, Lithuanian) / 412 (0x19C) (AVC) / 413 (0x19D) (MPEG Audio, Lithuanian) / 414 (0x19E) (MPEG Audio, qaa) / 417 (0x1A1) (DVB Subtitle)
Language                       : Lithuanian / Lithuanian /  / Lithuanian / qaa

2016-05-18 19_46_20-Bitrate Viewer - 20160518_1848 LRT Televizija HD.TS

Įrašą galite atsisiųsti

  LRT HD DVB-T įrašas (150,5 MiB, 535 hits)

.

Ir duomenų srautas gan matomai adaptuojasi prie poreikio.

Smalsumo dėlei galite praskenuoti ir pabandyti rasti LRT HD transliaciją jeigu esate ne tik Kaune ar Marijampolėje. Oficialius LRT siųstuvų tinklo startas turėtų būti iki Liepos 1, kadangi tada pradeda nebegalioti senieji leidimai transliuoti LRT ir LRT Kultūra programas.

Norint matyti LRT  HD transliaciją visu grožiu reikia turėtų HD televizorių su DVB-T imtuvu, jeigu imtuvo nėra tada reikia HD televizoriaus ir HD priedėlio ir sujungti juos HDMI kabeliu. Antena gali likti ta pati kaip ir standartinės raiškos kanalų priėmimui.

Už įrašą bei ALT-DVB kadrą dėkui Milviui,  už informaciją apie DVB-T naujienas Dratui.

Papildyta 20:46

Pasinaudoju RRT įrankiu galima rasti veikiančius DVB-T siųstuvus. O naujus LRT tinklo siųstuvus išduoda savininkas – Lietuvos nacionalinis radijas ir televizija, VšĮ.

2016-05-18 20_49_37-Antžeminė skaitmeninė TV

Papildyta 2016-05-19

LRT HD transliuojama su 4 garso takeliais, vienas iš jų tylus, tad jeigu nėra garso reiktų pasirinkti kitą takelį.

Panašūs įrašai:

css.php
Bear